Problems with .aif/aiff files (Windows 7 OS)

Help for Audacity 2.x.x on Windows.
Forum rules
ImageThis forum is for Audacity 2.x.x on Windows.
Please state which version of Windows you are using,
and the exact three-section version number of Audacity from "Help menu > About Audacity".


Audacity 1.2.x and 1.3.x are obsolete and no longer supported. If you still have those versions, please upgrade at https://www.audacityteam.org/download/.
The old forums for those versions are now closed, but you can still read the archives of the 1.2.x and 1.3.x forums.
Locked
WEEKOLDMILK
Posts: 4
Joined: Fri Mar 29, 2013 4:47 pm
Operating System: Please select

Problems with .aif/aiff files (Windows 7 OS)

Post by WEEKOLDMILK » Fri Mar 29, 2013 4:54 pm

I've got a few .aif (or aiff, anyway) that I need to convert, but when I open them in Audacity the dialogue is really messed up. The speech is covered over by a really annoying sound that sounds like static and clicking together. I've tried all the different effects and generators to fix it, but nothing is working. Does Audacity have problems with this file type, like major bugs or something? Or is it just the file itself? :?

Gale Andrews
Quality Assurance
Posts: 25981
Joined: Fri Jul 27, 2007 12:02 am
Operating System: Windows 10

Re: Problems with .aif/aiff files (Windows 7 OS)

Post by Gale Andrews » Fri Mar 29, 2013 9:19 pm

WEEKOLDMILK wrote:I've got a few .aif (or aiff, anyway) that I need to convert, but when I open them in Audacity the dialogue is really messed up. The speech is covered over by a really annoying sound that sounds like static and clicking together. I've tried all the different effects and generators to fix it, but nothing is working. Does Audacity have problems with this file type, like major bugs or something? Or is it just the file itself? :?
Audacity should have no problem with uncompressed PCM AIFF.

If the AIFF contains compressed formats (in which case it should really have been given AIFC extension) then it will depend what that format is.

I suggest you look at Help > About Audacity. If it does not say version 2.0.3, grab that latest 2.0.3 version from here http://audacityteam.org/download/windows .

If the AIFF still does not import, it may contain AAC audio. In that case, download and install FFmpeg from http://manual.audacityteam.org/o/man/fa ... tml#ffdown . Import the AIFF by choosing File > Import > Audio..., select "FFmpeg-compatible files" in the "Files of type" dropdown, then select and open the AIFF file.

If the file still gives problems, get MediaInfo (the version without installer): http://mediainfo.sourceforge.net/en/Download/Windows

open the AIFF in that, press View > Text and paste the contents here.


Gale
________________________________________FOR INSTANT HELP: (Click on Link below)
* * * * * Tips * * * * * Tutorials * * * * * Quick Start Guide * * * * * Audacity Manual

WEEKOLDMILK
Posts: 4
Joined: Fri Mar 29, 2013 4:47 pm
Operating System: Please select

Re: Problems with .aif/aiff files (Windows 7 OS)

Post by WEEKOLDMILK » Fri Mar 29, 2013 11:48 pm

Thanks.

Yea, I had an old version, didn't think to update it. Thanks a bunch

WEEKOLDMILK
Posts: 4
Joined: Fri Mar 29, 2013 4:47 pm
Operating System: Please select

Re: Problems with .aif/aiff files (Windows 7 OS)

Post by WEEKOLDMILK » Fri Mar 29, 2013 11:58 pm

Gale Andrews wrote:
If the file still gives problems, get MediaInfo (the version without installer): http://mediainfo.sourceforge.net/en/Download/Windows

open the AIFF in that, press View > Text and paste the contents here.


Gale
This is what it gave me.

General
Complete name : C:UsersBobbyDesktopStuffRecord32.aiff
Format : AIFF
Format/Info : Apple/SGI
File size : 189 KiB
Duration : 63ms
Overall bit rate mode : Constant
Overall bit rate : 24.6 Mbps

Audio
Format : PCM
Codec ID : ima4
Duration : 63ms
Bit rate mode : Constant
Bit rate : 24.0 Mbps
Channel(s) : 2 channels
Sampling rate : 44.1 KHz
Bit depth : bit0
Stream size : 185 KiB (98%)

DVDdoug
Forum Crew
Posts: 3659
Joined: Fri Sep 10, 2010 11:30 pm
Operating System: Windows 10

Re: Problems with .aif/aiff files (Windows 7 OS)

Post by DVDdoug » Sat Mar 30, 2013 1:55 am

Sorry, this isn't going to be much help...
Format : PCM
Codec ID : ima4
PCM is the standard format for WAV & AIFF and it should be no problem, and Audacity supports standard uncompressed linear PCM "out of the box". But, I don't know what ima4 is, and I don't know if FFMPEG supports it.
Duration : 63ms
63 milliseconds has got to be an error.
Bit depth : bit0
That doesn't make sense either.

WEEKOLDMILK
Posts: 4
Joined: Fri Mar 29, 2013 4:47 pm
Operating System: Please select

Re: Problems with .aif/aiff files (Windows 7 OS)

Post by WEEKOLDMILK » Sat Mar 30, 2013 3:08 am

Isn't the 63ms just the duration of the clip?

Also, I recorded the files on a mic app on my iphone and emailed them to myself, but see that shouldn't have caused the problem since they matched with most of what I was told here.

Gale Andrews
Quality Assurance
Posts: 25981
Joined: Fri Jul 27, 2007 12:02 am
Operating System: Windows 10

Re: Problems with .aif/aiff files (Windows 7 OS)

Post by Gale Andrews » Sat Mar 30, 2013 4:31 am

IMA4 is Apple's version of IMA ADPCM:
http://wiki.multimedia.cx/index.php?tit ... _IMA_ADPCM

which is a "compressed" 4-bit type of PCM.

Audacity would be able to import IMA ADPCM in a WAV container with its normal uncompressed importer, but not if IMA ADPCM is in an AIFF container:
http://www.mega-nerd.com/libsndfile/ .

FFmpeg supports numerous IMA ADPCM codecs but doesn't explicitly mention IMA4. Did you try FFmpeg as I suggested?

Have you tried to play the file in iTunes ? iTunes or QuickTime which comes with iTunes should be able to play IMA4 on Mac (http://support.apple.com/kb/ht3775) so may be able to do so on Windows. If so you can convert the file to WAV in iTunes then Audacity will import it.



Gale
________________________________________FOR INSTANT HELP: (Click on Link below)
* * * * * Tips * * * * * Tutorials * * * * * Quick Start Guide * * * * * Audacity Manual

stealthtaco
Posts: 6
Joined: Fri Dec 07, 2018 3:29 am
Operating System: Windows 7

Re: Problems with .aif/aiff files (Windows 7 OS)

Post by stealthtaco » Fri Dec 07, 2018 4:09 am

Same issue for me. .AIF files are all static. Here's an example of the data from the file using MediaInfo.dll

Code: Select all

General
Complete name                            : C:\Users\Aaron\Desktop\Rob Zombie\02 Superbeast.aif
Format                                   : AIFF
Format/Info                              : Apple/SGI
File size                                : 37.0 MiB
Duration                                 : 3 min 39 s
Overall bit rate mode                    : Constant
Overall bit rate                         : 1 415 kb/s
Album                                    : Hellbilly Deluxe
Track name                               : Superbeast
Track name/Position                      : 2
Performer                                : Rob Zombie
Genre                                    : Heavy Metal
Recorded date                            : 1998
BPM                                      : 153
Cover                                    : Yes
Cover description                        : Picture
Cover type                               : Cover (front)
Cover MIME                               : image/jpeg
Dynamic Range (DR)                       : 5
Dynamic Range (R128)                     : 8.921799659729004
Peak Level (R128)                        : +0.9 dBTP; +0.6 Left; +0.9 Right
Peak Level (Sample)                      : -0.1 dB; -0.1 Left; -0.1 Right
Tool Name                                : Media Center
Tool Version                             : 19.0.146
Volume Level (R128)                      : -16.5372200012207031
Volume Level (ReplayGain)                : -11.5372200012207031

Audio
Format                                   : PCM
Format settings                          : Big
Duration                                 : 3 min 39 s
Bit rate mode                            : Constant
Bit rate                                 : 1 411.2 kb/s
Channel(s)                               : 2 channels
Sampling rate                            : 44.1 kHz
Bit depth                                : 16 bits
Stream size                              : 36.9 MiB (100%)
Last edited by steve on Fri Dec 07, 2018 11:03 am, edited 1 time in total.
Reason: code tags added for long data

steve
Site Admin
Posts: 49027
Joined: Sat Dec 01, 2007 11:43 am
Operating System: Linux *buntu

Re: Problems with .aif/aiff files (Windows 7 OS)

Post by steve » Fri Dec 07, 2018 11:08 am

stealthtaco wrote:
Fri Dec 07, 2018 4:09 am
Same issue for me. .AIF files are all static. Here's an example of the data from the file using MediaInfo.dll
This is not the same issue, and Gale Andrews will not be able to reply or help you as he died in 2017. Topic locked.

Please see my reply to your original post here: viewtopic.php?p=359543#p359543
9/10 questions are answered in the FREQUENTLY ASKED QUESTIONS (FAQ)

Locked